The Gentlemen 2019 Free Download Torrent

The Gentlemen 2019 Trusted uploader

Director: Guy Ritchie

Screenwriters: Guy Ritchie (screenplay), Guy Ritchie (story)

Stars: Matthew McConaughey, Charlie Hunnam, Michelle Dockery

Plot / story:

An American expatriate tries to sell his highly profitable marijuana empire in London, sparking conspiracies, schemes, bribery and blackmail to try to steal his domain.

General

Full name:

Format: AVI

Format / information: Audio Video Interleave

Filesize: 938 MiB

Duration: 1 53 min

Overall bit rate: 1,154 kb / s

Subtitles: (HI)

Video

ID: 0

Format: MPEG-4 Visual

Format profile: advanced

Format settings, BVOP: 2

Format settings, QPel: no

Format settings, GMC: no waypoints

Format settings, matrix: standard ()

Codec ID: XVID

Codec identifier / tip: XviD

Duration: 1 53 min

Bit rate: 1,013 kb / s

Width: 720 pixels

Height: 304 pixels

Screen aspect ratio: 1

Frame period: (24000/1001) FPS

Color space: YUV

Chrome sub-amplification: 4: 2: 0

Bit depth: 8 bits

Scan type: progressive

Compression mode: loss

Bits / (Pixel * Frame):

Stream size: 824 MiB (88%)

Writing Library: XviD 64

Audio

ID: 1

Format: MPEG Audio

Version format: Version 1

Format profile: Layer 3

Codec ID: 55

Codec identification / suggestion: MP3

Duration: 1 53 min

Bit rate mode: Constant

Bit rate: 128 kb / s

Channel (s): 2 channels

Sampling speed: kHz

Compression mode: loss

Stream size: 11 MiB (11%)

Alignment: aligned on the interlacing

Interlocution, duration: 24 ms (video frame)

Screenshots:

Please sow as much time as possible

Or at least 1: 1

Enjoy the Peeps